<?xml version="1.0" standalone="no"?>
<!DOCTYPE svg PUBLIC "-//W3C//DTD SVG 1.1//EN" "http://www.w3.org/Graphics/SVG/1.1/DTD/svg11.dtd">
<svg xmlns="http://www.w3.org/2000/svg">
<defs >
<font id="Slabo27px" horiz-adv-x="397" ><font-face
    font-family="Slabo 27px"
    units-per-em="810"
    panose-1="2 6 5 3 3 5 5 2 4 4"
    ascent="750"
    descent="-240"
    alphabetic="0" />
<glyph unicode=" " glyph-name="space" horiz-adv-x="150" />
<glyph unicode="!" glyph-name="exclam" horiz-adv-x="240" d="M92 540H166L150 150H109L92 540ZM80 39Q80 63 93 77T130 92Q153 92 166 78T180 43Q180 18 166 4T128 -10Q106 -10 93 4T80 39Z" />
<glyph unicode="&quot;" glyph-name="quotedbl" horiz-adv-x="270" d="M42 540H108L95 360H55L42 540ZM162 540H228L215 360H175L162 540Z" />
<glyph unicode="#" glyph-name="numbersign" horiz-adv-x="420" d="M390 340L386 300H307L296 180H376L372 140H292L280 0H230L243 140H157L145 0H96L109 140H30L34 180H112L123 300H44L48 340H127L140 480H188L175 340H262L275 480H323L310 340H390ZM161 180H247L258
300H172L161 180Z" />
<glyph unicode="$" glyph-name="dollar" horiz-adv-x="420" d="M180 -70V-2Q109 -1 40 23V130H92V61Q126 50 180 49V249Q102 281 70 314T38 401Q38 458 75 495T180 540V610H226V541Q299 537 352 515V420H300V479Q266 490 226 491V295Q302 263 336 229T370 142Q370
86 334 48T226 1V-70H180ZM308 132Q308 170 286 192T226 231V51Q268 58 288 80T308 132ZM100 409Q100 372 121 351T180 314V490Q139 485 120 463T100 409Z" />
<glyph unicode="%" glyph-name="percent" horiz-adv-x="780" d="M50 379Q50 463 87 506T184 550Q242 550 276 507T310 385Q310 298 274 254T178 210Q121 210 86 254T50 379ZM106 382Q106 320 124 289T180 257Q216 257 235 288T254 382Q254 443 237 473T180 503Q144
503 125 475T106 382ZM605 550L235 0H175L545 550H605ZM470 170Q470 254 507 297T604 341Q662 341 696 298T730 176Q730 89 694 45T598 1Q541 1 506 45T470 170ZM526 173Q526 111 544 80T600 48Q636 48 655 79T674 173Q674 234 657 264T600 294Q564 294 545 266T526
173Z" />
<glyph unicode="&amp;" glyph-name="ampersand" horiz-adv-x="540" d="M410 280H360V330H520V280H462Q457 184 416 109Q448 76 470 61T514 45Q528 45 540 47V0Q522 -5 503 -5Q474 -5 449 9T381 63Q314 -10 220 -10Q143 -10 95 34T47 143Q47 239 150 299Q90 367
90 423Q90 479 126 514T222 550Q278 550 314 520T350 439Q350 397 323 363T235 292Q251 274 271 254T310 213L378 146Q408 207 410 280ZM110 155Q110 104 142 72T228 40Q294 40 345 96Q313 127 271 168T180 265Q110 225 110 155ZM292 435Q292 466 272 483T220 500Q188
500 169 482T149 429Q149 382 205 325Q249 349 270 376T292 435Z" />
<glyph unicode="&apos;" glyph-name="quotesingle" horiz-adv-x="150" d="M42 540H108L95 360H55L42 540Z" />
<glyph unicode="(" glyph-name="parenleft" horiz-adv-x="270" d="M110 243Q110 32 250 -120H192Q46 42 47 239Q46 435 192 600H250Q110 449 110 243Z" />
<glyph unicode=")" glyph-name="parenright" horiz-adv-x="270" d="M160 239Q160 449 20 600H78Q224 435 223 243Q224 42 78 -120H20Q160 32 160 239Z" />
<glyph unicode="*" glyph-name="asterisk" horiz-adv-x="360" d="M216 570L207 458L313 500L330 440L221 417L295 328L245 290L185 389L125 291L76 329L148 417L39 441L58 500L162 459L154 570H216Z" />
<glyph unicode="+" glyph-name="plus" horiz-adv-x="390" d="M222 50H168V183H30V237H168V370H222V237H360V183H222V50Z" />
<glyph unicode="," glyph-name="comma" horiz-adv-x="210" d="M109 118Q155 75 155 28Q155 -37 79 -104L48 -75Q91 -34 90 4Q90 34 52 69L109 118Z" />
<glyph unicode="-" glyph-name="hyphen" horiz-adv-x="210" d="M30 230H180V180H30V230Z" />
<glyph unicode="." glyph-name="period" horiz-adv-x="180" d="M50 39Q50 63 63 77T100 92Q123 92 136 78T150 43Q150 18 136 4T98 -10Q76 -10 63 4T50 39Z" />
<glyph unicode="/" glyph-name="slash" horiz-adv-x="240" d="M200 540H252L40 -120H-12L200 540Z" />
<glyph unicode="0" glyph-name="zero" horiz-adv-x="420" d="M40 224Q40 335 87 397T215 460Q289 460 334 400T380 230Q380 122 334 56T208 -10Q132 -10 86 54T40 224ZM103 228Q103 137 131 89T209 40Q261 40 289 89T317 230Q317 317 291 363T211 410Q160 410
132 365T103 228Z" />
<glyph unicode="1" glyph-name="one" horiz-adv-x="240" d="M110 0V400H40V450H170V0H110Z" />
<glyph unicode="2" glyph-name="two" horiz-adv-x="360" d="M330 110V0H30V45Q124 121 187 199T250 332Q250 368 233 389T170 410Q131 410 92 393V320H40V422Q109 460 177 460Q243 460 278 428T313 338Q313 273 250 193T110 52V50H278V110H330Z" />
<glyph unicode="3" glyph-name="three" horiz-adv-x="360" d="M10 -32Q67 -49 126 -49Q195 -49 231 -22T267 61Q267 113 233 137T129 161H100V210H120Q180 210 213 240T247 323Q247 365 224 387T152 410Q108 410 72 395V330H20V425Q86 460 156 460Q228 460 269
423T310 327Q310 238 214 194V192Q330 167 330 61Q330 26 317 -3T277 -54T212 -88T123 -100Q63 -100 10 -84V-32Z" />
<glyph unicode="4" glyph-name="four" horiz-adv-x="420" d="M270 60H20V104L281 450H330V110H390V60H330V-60H270V60ZM87 110H270V352H268L87 112V110Z" />
<glyph unicode="5" glyph-name="five" horiz-adv-x="390" d="M40 -36Q89 -49 139 -49Q209 -49 248 -18T287 79Q287 138 249 169T129 200Q92 200 50 196V450H322V340H270V400H105V248Q126 250 143 250Q236 250 293 208T350 83Q350 3 293 -48T137 -100Q85 -100 40 -89V-36Z" />
<glyph unicode="6" glyph-name="six" horiz-adv-x="420" d="M350 495Q317 500 295 500Q201 500 154 442T103 276L105 275Q158 330 234 330Q303 330 346 286T390 176Q390 102 343 51T220 0Q136 0 88 65T40 252Q40 390 107 470T295 550Q319 550 350 545V495ZM103
227Q108 149 137 100T222 50Q268 50 297 81T327 167Q327 218 300 249T223 280Q155 280 103 227Z" />
<glyph unicode="7" glyph-name="seven" horiz-adv-x="360" d="M110 -90Q113 -27 130 39T173 168T228 290T287 398L286 400H82V333H30V450H350V407Q315 350 285 290T231 168T193 42T178 -90H110Z" />
<glyph unicode="8" glyph-name="eight" horiz-adv-x="420" d="M145 285V287Q47 336 47 412Q47 474 94 512T216 550Q289 550 331 515T373 422Q373 344 269 291V289Q327 259 355 224T383 145Q383 83 334 42T206 0Q129 0 83 38T37 137Q37 229 145 285ZM189 263Q100
218 100 140Q100 95 130 73T208 50Q259 50 289 74T320 136Q320 174 289 202T189 263ZM227 312Q313 359 313 420Q313 460 285 480T211 500Q166 500 137 480T107 425Q107 405 116 390T142 361T180 337T227 312Z" />
<glyph unicode="9" glyph-name="nine" horiz-adv-x="420" d="M70 -45Q102 -50 125 -50Q218 -50 266 10T317 183L315 184Q262 130 186 130Q117 130 74 174T30 286Q30 360 77 410T200 460Q285 460 332 395T380 208Q380 66 312 -17T125 -100Q101 -100 70 -95V-45ZM317
233Q312 311 283 360T198 410Q152 410 123 379T93 293Q93 242 120 211T197 180Q264 180 317 233Z" />
<glyph unicode=":" glyph-name="colon" horiz-adv-x="210" d="M60 39Q60 63 73 77T110 92Q133 92 146 78T160 43Q160 18 146 4T108 -10Q86 -10 73 4T60 39ZM60 337Q60 361 73 375T110 390Q133 390 146 376T160 341Q160 316 146 302T108 288Q86 288 73 302T60 337Z" />
<glyph unicode=";" glyph-name="semicolon" horiz-adv-x="210" d="M60 337Q60 361 73 375T110 390Q133 390 146 376T160 341Q160 316 146 302T108 288Q86 288 73 302T60 337ZM119 118Q165 75 165 28Q165 -37 89 -104L58 -75Q101 -34 100 4Q100 34 62 69L119 118Z" />
<glyph unicode="&lt;" glyph-name="less" horiz-adv-x="390" d="M97 209L360 117V60L30 183V237L360 360V305L97 211V209Z" />
<glyph unicode="=" glyph-name="equal" horiz-adv-x="390" d="M30 246V300H360V246H30ZM30 120V174H360V120H30Z" />
<glyph unicode="&gt;" glyph-name="greater" horiz-adv-x="390" d="M293 211L30 305V360L360 237V183L30 60V117L293 209V211Z" />
<glyph unicode="?" glyph-name="question" horiz-adv-x="300" d="M60 537Q99 550 141 550Q202 550 242 515T282 420Q282 376 264 346T213 290Q180 263 164 242T147 190Q147 172 153 150H109Q98 180 98 210Q98 244 113 269T157 317Q184 339 202 360T220 418Q220
457 196 477T131 497Q99 497 60 485V537ZM80 39Q80 63 93 77T130 92Q153 92 166 78T180 43Q180 18 166 4T128 -10Q106 -10 93 4T80 39Z" />
<glyph unicode="@" glyph-name="at" horiz-adv-x="660" d="M480 -124Q407 -150 330 -150Q202 -150 126 -69T50 147Q50 289 134 384T352 480Q473 480 546 401T620 203Q620 113 578 52T474 -10Q437 -10 414 12T390 78H389Q352 -10 286 -10Q244 -10 220 28T195 125Q195
212 238 271T357 330Q402 330 457 312L447 175Q441 116 441 85Q441 41 474 41Q512 41 537 87T562 203Q562 303 503 365T351 427Q247 427 179 350T110 153Q110 38 171 -28T334 -95Q403 -95 480 -69V-124ZM397 278Q377 284 354 284Q311 284 286 240T260 129Q260 88
269 66T301 43Q336 43 360 97T391 211L397 278Z" />
<glyph unicode="A" glyph-name="A" horiz-adv-x="480" d="M160 50V0H0V50H50L211 545H269L433 50H480V0H320V50H370L321 200H154L107 50H160ZM235 460L169 250H305L237 460H235Z" />
<glyph unicode="B" glyph-name="B" horiz-adv-x="450" d="M307 292Q360 279 385 243T410 158Q410 84 362 42T212 0H30V50H90V490H30V540H213Q303 540 346 507T389 412Q389 370 370 340T307 294V292ZM214 50Q281 50 313 74T346 158Q346 210 316 235T219 260H150V50H214ZM214
310Q326 310 326 403Q326 450 298 470T209 490H150V310H214Z" />
<glyph unicode="C" glyph-name="C" horiz-adv-x="450" d="M420 30Q346 -10 270 -10Q163 -10 102 64T40 270Q40 400 103 475T271 550Q344 550 420 518V400H365V479Q325 495 269 495Q189 495 146 441T103 274Q103 157 148 101T273 45Q340 45 420 85V30Z" />
<glyph unicode="D" glyph-name="D" horiz-adv-x="510" d="M30 50H90V490H30V540H209Q339 540 401 476T463 284Q463 144 393 72T191 0H30V50ZM150 50H198Q295 50 347 105T400 278Q400 388 352 439T198 490H150V50Z" />
<glyph unicode="E" glyph-name="E" horiz-adv-x="420" d="M337 50V120H390V0H30V50H90V490H30V540H380V420H327V490H150V300H250V350H300V190H250V250H150V50H337Z" />
<glyph unicode="F" glyph-name="F" horiz-adv-x="390" d="M150 240V50H220V0H30V50H90V490H30V540H380V420H327V490H150V290H260V340H310V180H260V240H150Z" />
<glyph unicode="G" glyph-name="G" horiz-adv-x="510" d="M310 250H480V200H440V25Q365 -10 284 -10Q168 -10 104 64T40 270Q40 400 106 475T283 550Q360 550 440 518V390H385V479Q341 495 281 495Q195 495 149 441T103 274Q103 157 151 101T286 45Q332 45 381
59V200H310V250Z" />
<glyph unicode="H" glyph-name="H" horiz-adv-x="570" d="M30 50H90V490H30V540H210V490H150V300H420V490H360V540H540V490H480V50H540V0H360V50H420V250H150V50H210V0H30V50Z" />
<glyph unicode="I" glyph-name="I" horiz-adv-x="240" d="M30 50H90V490H30V540H210V490H150V50H210V0H30V50Z" />
<glyph unicode="J" glyph-name="J" horiz-adv-x="240" d="M6 -95Q19 -96 30 -96Q63 -96 76 -81T90 -20V490H30V540H210V490H150V-13Q150 -80 125 -115T36 -150Q21 -150 6 -147V-95Z" />
<glyph unicode="K" glyph-name="K" horiz-adv-x="480" d="M300 490V540H460V490H410L226 286L419 50H480V0H300V50H341V52L155 281L342 488V490H300ZM30 50H90V490H30V540H210V490H150V50H210V0H30V50Z" />
<glyph unicode="L" glyph-name="L" horiz-adv-x="390" d="M210 490H150V50H317V120H370V0H30V50H90V490H30V540H210V490Z" />
<glyph unicode="M" glyph-name="M" horiz-adv-x="690" d="M539 453L364 -5H318L144 444H142L132 50H180V0H20V50H77L90 490H31V540H171L344 93H346L516 540H657V490H600L611 50H670V0H500V50H551L541 453H539Z" />
<glyph unicode="N" glyph-name="N" horiz-adv-x="540" d="M394 490H334V540H510V490H450V0H392L148 421H146V50H206V0H30V50H90V490H30V540H150L392 124H394V490Z" />
<glyph unicode="O" glyph-name="O" horiz-adv-x="510" d="M47 271Q47 401 104 475T260 550Q356 550 409 478T463 278Q463 142 406 66T252 -10Q159 -10 103 64T47 271ZM110 274Q110 162 148 104T255 45Q323 45 361 103T400 275Q400 384 364 439T257 495Q186 495
148 441T110 274Z" />
<glyph unicode="P" glyph-name="P" horiz-adv-x="420" d="M150 220V50H220V0H30V50H90V490H30V540H211Q299 540 341 502T383 390Q383 307 336 264T197 220H150ZM200 270Q258 270 289 296T320 383Q320 444 292 467T205 490H150V270H200Z" />
<glyph unicode="Q" glyph-name="Q" horiz-adv-x="510" d="M47 271Q47 401 105 475T260 550Q355 550 409 478T463 278Q463 159 421 89T317 1V-1Q343 -48 385 -73T477 -98Q525 -98 570 -79V-130Q523 -150 470 -150Q401 -150 343 -112T248 -10Q157 -7 102 66T47 271ZM110
274Q110 162 148 104T255 45Q323 45 361 103T400 275Q400 384 364 439T257 495Q186 495 148 441T110 274Z" />
<glyph unicode="R" glyph-name="R" horiz-adv-x="450" d="M150 50H210V0H30V50H90V490H37V540H211Q304 540 347 506T390 405Q390 286 264 259V257Q278 249 294 233T334 171L400 50H450V0H354Q342 27 331 48T310 87L273 156Q253 191 241 209T214 239Q199 250 175
250H150V50ZM198 300Q262 300 294 323T327 399Q327 450 298 470T205 490H150V300H198Z" />
<glyph unicode="S" glyph-name="S" horiz-adv-x="390" d="M177 -10Q101 -10 36 18V130H90V56Q125 43 182 43Q237 43 267 68T298 138Q298 161 290 177T267 206T230 229T180 251Q153 261 127 272T79 301T44 344T30 406Q30 471 78 510T208 550Q280 550 340 520V410H286V482Q250
497 203 497Q148 497 120 471T92 409Q92 387 100 372T124 344T162 323T213 303Q241 292 267 280T314 250T347 207T360 142Q360 73 311 32T177 -10Z" />
<glyph unicode="T" glyph-name="T" horiz-adv-x="420" d="M110 50H180V490H70V410H17V540H403V410H350V490H240V50H310V0H110V50Z" />
<glyph unicode="U" glyph-name="U" horiz-adv-x="540" d="M140 173Q140 110 175 78T269 45Q333 45 368 79T404 176V490H343V540H520V490H460V179Q460 95 409 43T268 -10Q182 -10 131 39T80 172V490H20V540H200V490H140V173Z" />
<glyph unicode="V" glyph-name="V" horiz-adv-x="480" d="M245 80L371 490H320V540H480V490H428L269 -5H211L49 490H0V540H160V490H112L243 80H245Z" />
<glyph unicode="W" glyph-name="W" horiz-adv-x="720" d="M490 80L611 490H560V540H720V490H668L514 -5H456L360 288H358L264 -5H206L49 490H0V540H160V490H112L238 80H240L333 369L293 490H240V540H410V490H353L488 80H490Z" />
<glyph unicode="X" glyph-name="X" horiz-adv-x="450" d="M64 490H10V540H180V490H132L230 328L330 490H280V540H440V490H391L258 282L400 50H450V0H280V50H331L218 235L109 50H160V0H0V50H48L191 280L64 490Z" />
<glyph unicode="Y" glyph-name="Y" horiz-adv-x="480" d="M210 240L46 490H0V540H160V490H114L244 292L370 490H320V540H480V490H433L270 240V50H340V0H140V50H210V240Z" />
<glyph unicode="Z" glyph-name="Z" horiz-adv-x="450" d="M30 45L323 490H93V420H40V540H400V495L107 50H357V120H410V0H30V45Z" />
<glyph unicode="[" glyph-name="bracketleft" horiz-adv-x="240" d="M60 600H200V550H115V-70H200V-120H60V600Z" />
<glyph unicode="\" glyph-name="backslash" horiz-adv-x="240" d="M252 -120H200L-12 540H40L252 -120Z" />
<glyph unicode="]" glyph-name="bracketright" horiz-adv-x="240" d="M180 -120H40V-70H125V550H40V600H180V-120Z" />
<glyph unicode="^" glyph-name="asciicircum" horiz-adv-x="360" d="M179 480L85 270H27L158 545H203L334 270H276L181 480H179Z" />
<glyph unicode="_" glyph-name="underscore" horiz-adv-x="300" d="M-10 -45H310V-90H-10V-45Z" />
<glyph unicode="`" glyph-name="grave" horiz-adv-x="180" d="M150 430H104L24 550H94L150 430Z" />
<glyph unicode="a" glyph-name="a" horiz-adv-x="390" d="M60 361Q129 400 201 400Q263 400 296 372T330 281V50H380V0H276L273 45L271 46Q223 -10 153 -10Q101 -10 71 20T40 98Q40 161 94 192T253 223H270V282Q270 319 253 334T194 350Q145 350 112 334V280H60V361ZM246
180Q177 180 140 163T103 101Q103 69 121 55T167 40Q227 40 270 89V180H246Z" />
<glyph unicode="b" glyph-name="b" horiz-adv-x="420" d="M135 46Q165 40 194 40Q254 40 285 77T317 195Q317 267 293 308T218 350Q174 350 135 317V46ZM135 365L137 364Q179 400 236 400Q301 400 340 345T380 204Q380 104 330 47T191 -10Q134 -10 75 9V550H25V600H135V365Z"
/>
<glyph unicode="c" glyph-name="c" horiz-adv-x="360" d="M320 15Q272 -10 215 -10Q134 -10 87 42T40 191Q40 289 89 344T218 400Q273 400 320 377V280H267V341Q245 350 213 350Q157 350 130 315T103 202Q103 120 132 81T216 42Q270 42 320 69V15Z" />
<glyph unicode="d" glyph-name="d" horiz-adv-x="420" d="M230 550V600H350V50H400V0H293L290 34L288 35Q246 -10 188 -10Q120 -10 80 45T40 189Q40 283 88 341T212 400Q250 400 288 382L290 383V550H230ZM290 336Q253 350 215 350Q158 350 131 313T103 196Q103
120 127 80T203 40Q253 40 290 80V336Z" />
<glyph unicode="e" glyph-name="e" horiz-adv-x="360" d="M320 75V21Q270 -10 203 -10Q124 -10 80 43T35 191Q35 289 82 344T200 400Q258 400 294 354T330 223V192H97Q99 122 124 83T206 42Q268 42 320 75ZM270 240Q270 297 249 323T190 350Q153 350 128 323T98 240H270Z" />
<glyph unicode="f" glyph-name="f" horiz-adv-x="240" d="M292 500H240V554Q225 557 210 557Q173 557 157 537T140 472V390H230V340H140V50H190V0H30V50H80V340H30V390H80V463Q80 535 114 570T209 605Q248 605 292 590V500Z" />
<glyph unicode="g" glyph-name="g" horiz-adv-x="360" d="M40 259Q40 321 79 360T179 400Q201 400 219 395Q235 390 255 390H350V342H293V341Q312 308 312 268Q312 202 274 161T174 120Q146 120 124 128Q105 106 105 86Q105 74 113 67T138 60H208Q274 60 309 33T345
-47Q345 -112 293 -151T162 -190Q98 -190 59 -160T20 -83Q20 -29 74 16Q50 36 50 68Q50 108 93 144Q40 185 40 259ZM111 0Q80 -30 80 -70Q80 -104 102 -123T170 -143Q224 -143 254 -121T285 -62Q285 -31 265 -16T208 0H111ZM102 264Q102 219 121 194T178 168Q214
168 232 191T250 261Q250 307 232 328T175 350Q139 350 121 329T102 264Z" />
<glyph unicode="h" glyph-name="h" horiz-adv-x="420" d="M70 550H20V600H130V344H131Q185 400 254 400Q304 400 327 372T350 291V50H400V0H250V50H290V283Q290 323 276 336T237 350Q179 350 130 293V50H170V0H20V50H70V550Z" />
<glyph unicode="i" glyph-name="i" horiz-adv-x="210" d="M30 50H80V340H30V390H140V50H190V0H30V50ZM63 496Q63 517 74 528T106 540Q125 540 137 529T149 498Q149 478 137 467T105 455Q86 455 75 466T63 496Z" />
<glyph unicode="j" glyph-name="j" horiz-adv-x="180" d="M105 -149Q81 -182 28 -182Q14 -182 0 -180V-130Q8 -131 17 -131Q48 -131 59 -115T70 -58V340H20V390H130V-49Q130 -117 105 -149ZM53 496Q53 517 64 528T96 540Q115 540 127 529T139 498Q139 478 127
467T95 455Q76 455 65 466T53 496Z" />
<glyph unicode="k" glyph-name="k" horiz-adv-x="390" d="M30 50H80V550H30V600H140V50H180V0H30V50ZM230 390H380V340H327L213 219L344 50H390V0H235V50H272L273 52L150 213L267 340H230V390Z" />
<glyph unicode="l" glyph-name="l" horiz-adv-x="210" d="M30 50H80V550H30V600H140V50H190V0H30V50Z" />
<glyph unicode="m" glyph-name="m" horiz-adv-x="630" d="M30 50H80V340H30V390H136L139 338H140Q193 400 261 400Q333 400 348 337H350Q404 400 474 400Q524 400 547 372T570 291V50H620V0H470V50H510V283Q510 323 496 336T457 350Q403 350 355 294V50H395V0H255V50H295V283Q295
323 282 336T244 350Q187 350 140 288V50H180V0H30V50Z" />
<glyph unicode="n" glyph-name="n" horiz-adv-x="420" d="M30 50H80V340H30V390H136L139 338H140Q194 400 264 400Q314 400 337 372T360 291V50H410V0H260V50H300V283Q300 323 286 336T247 350Q189 350 140 288V50H180V0H30V50Z" />
<glyph unicode="o" glyph-name="o" horiz-adv-x="390" d="M35 193Q35 288 81 344T199 400Q270 400 312 348T355 202Q355 106 310 48T192 -10Q120 -10 78 45T35 193ZM98 202Q98 123 123 82T197 40Q242 40 267 78T292 196Q292 350 194 350Q147 350 123 315T98 202Z" />
<glyph unicode="p" glyph-name="p" horiz-adv-x="420" d="M132 390L135 358H137Q182 400 238 400Q302 400 341 348T380 209Q380 111 333 51T212 -10Q174 -10 137 8L135 7V-130H195V-180H25V-130H75V340H25V390H132ZM135 55Q165 40 205 40Q258 40 287 79T317 199Q317
277 291 313T221 350Q173 350 135 307V55Z" />
<glyph unicode="q" glyph-name="q" horiz-adv-x="390" d="M400 -130V-180H230V-130H290V32L288 33Q247 -10 187 -10Q121 -10 81 45T40 187Q40 282 88 341T225 400Q279 400 350 379V-130H400ZM290 341Q252 350 219 350Q161 350 132 313T103 195Q103 114 130 77T203
40Q253 40 290 78V341Z" />
<glyph unicode="r" glyph-name="r" horiz-adv-x="270" d="M30 50H80V340H30V390H137L140 334H142Q161 366 184 381T239 396Q251 396 260 394V331Q245 334 229 334Q200 334 179 321T140 277V50H200V0H30V50Z" />
<glyph unicode="s" glyph-name="s" horiz-adv-x="330" d="M154 -10Q92 -10 40 14V100H92V48Q122 39 158 39Q203 39 221 54T240 98Q240 124 218 139T149 172Q83 196 59 223T35 288Q35 337 74 368T174 400Q230 400 280 376V290H228V343Q205 352 171 352Q133 352
114 337T95 296Q95 271 115 257T180 226Q243 204 271 177T300 105Q300 53 260 22T154 -10Z" />
<glyph unicode="t" glyph-name="t" horiz-adv-x="240" d="M163 -10Q120 -10 95 12T70 79V340H20V390H70V480L130 491V390H220V340H130V89Q130 60 141 50T172 40Q196 40 220 52V3Q193 -10 163 -10Z" />
<glyph unicode="u" glyph-name="u" horiz-adv-x="420" d="M290 340H240V390H350V50H400V0H295L292 43H290Q246 -10 179 -10Q126 -10 98 18T70 99V340H20V390H130V109Q130 69 147 55T195 40Q253 40 290 87V340Z" />
<glyph unicode="v" glyph-name="v" horiz-adv-x="390" d="M218 -5H161L45 340H0V390H150V340H106L193 72H195L285 340H240V390H390V340H340L218 -5Z" />
<glyph unicode="w" glyph-name="w" horiz-adv-x="600" d="M433 -5H376L297 226H295L213 -5H156L45 340H0V390H150V340H106L188 72H190L272 296L257 340H210V390H370V340H316L408 72H410L495 340H450V390H600V340H550L433 -5Z" />
<glyph unicode="x" glyph-name="x" horiz-adv-x="360" d="M254 338V340H220V390H355V340H308L209 203L313 50H360V0H210V50H245V52L173 158L99 52V50H140V0H0V50H45L149 196L51 340H5V390H150V340H118V338L185 240L254 338Z" />
<glyph unicode="y" glyph-name="y" horiz-adv-x="390" d="M340 340L211 -25Q199 -60 186 -89T155 -139T113 -172T56 -183Q38 -183 20 -180V-125Q39 -128 57 -128Q73 -128 86 -125T112 -111T137 -76T166 -5H161L45 340H0V390H150V340H106L193 72H195L286 340H240V390H390V340H340Z"
/>
<glyph unicode="z" glyph-name="z" horiz-adv-x="360" d="M30 43L246 342H82V280H30V390H320V347L105 48H278V110H330V0H30V43Z" />
<glyph unicode="{" glyph-name="braceleft" horiz-adv-x="270" d="M80 239Q116 229 133 204T150 136V-22Q150 -50 163 -60T195 -70H230V-120H195Q145 -120 120 -96T95 -19V137Q95 180 77 198T25 216V264Q59 264 77 281T95 341V499Q95 552 121 576T197 600H230V550H193Q175
550 163 541T150 502V344Q150 300 133 275T80 241V239Z" />
<glyph unicode="|" glyph-name="bar" horiz-adv-x="240" d="M95 610H145V-190H95V610Z" />
<glyph unicode="}" glyph-name="braceright" horiz-adv-x="270" d="M190 241Q154 250 137 275T120 344V502Q120 531 108 540T77 550H40V600H73Q122 600 148 576T175 499V341Q175 299 193 282T245 264V216Q211 216 193 198T175 137V-19Q175 -72 150 -96T75 -120H40V-70H75Q94
-70 107 -60T120 -22V136Q120 179 137 204T190 239V241Z" />
<glyph unicode="~" glyph-name="asciitilde" horiz-adv-x="420" d="M30 215Q81 251 134 251Q162 251 182 244T219 228Q235 220 250 215T285 209Q338 209 390 249V196Q337 160 284 160Q257 160 238 167T201 183Q185 191 169 197T133 203Q83 203 30 162V215Z" />
<glyph unicode="&#xa0;" glyph-name="uni00A0" horiz-adv-x="150" />
<glyph unicode="&#xa1;" glyph-name="exclamdown" horiz-adv-x="240" d="M148 -150H74L90 240H131L148 -150ZM60 347Q60 371 73 385T110 400Q133 400 146 386T160 351Q160 326 146 312T108 298Q86 298 73 312T60 347Z" />
<glyph unicode="&#xa2;" glyph-name="cent" horiz-adv-x="360" d="M180 -70V0Q114 8 77 56T40 192Q40 283 78 332T180 389V460H226V391Q256 389 282 383T330 366V277H280V333Q268 337 255 339T226 343V48Q273 51 330 83V30Q281 2 226 -1V-70H180ZM180 341Q139
332 121 299T102 199Q102 130 121 95T180 51V341Z" />
<glyph unicode="&#xa3;" glyph-name="sterling" horiz-adv-x="390" d="M40 280H98Q80 358 80 394Q80 462 122 501T234 540Q296 540 350 512V412H298V478Q267 490 231 490Q187 490 164 467T140 399Q140 365 159 280H290V235H167Q170 214 170 198Q170 108 107 52V50H308V120H360V0H40V43Q110
97 110 195Q110 214 107 235H40V280Z" />
<glyph unicode="&#xa4;" glyph-name="currency" horiz-adv-x="450" d="M56 10L12 53L89 128Q60 172 60 224Q60 280 89 321L12 396L54 438L127 360Q171 390 225 390Q279 390 321 362L396 440L438 396L360 322Q390 280 390 224Q390 172 360 127L437 52L395 9L320
87Q279 60 225 60Q171 60 130 87L56 10ZM115 224Q115 170 145 140T224 110Q275 110 305 140T335 224Q335 278 305 309T224 340Q175 340 145 309T115 224Z" />
<glyph unicode="&#xa5;" glyph-name="yen" horiz-adv-x="420" d="M217 285L320 490H270V540H420V490H374L268 285H360V240H240V180H360V135H240V50H300V0H120V50H180V135H61V180H180V240H61V285H152L42 490H0V540H149V490H106L215 285H217Z" />
<glyph unicode="&#xa6;" glyph-name="brokenbar" horiz-adv-x="240" d="M90 210H150V-10H90V210ZM90 550H150V330H90V550Z" />
<glyph unicode="&#xa7;" glyph-name="section" horiz-adv-x="420" d="M70 424Q70 481 111 515T225 550Q285 550 340 525V430H288V490Q253 500 220 500Q180 500 155 484T130 436Q130 418 138 404T159 380T190 361T228 343Q251 333 274 321T316 293T348 254T360
198Q360 114 277 78V76Q350 38 350 -34Q350 -91 309 -125T195 -160Q135 -160 80 -135V-40H132V-100Q166 -110 200 -110Q240 -110 265 -94T290 -46Q290 -28 282 -14T259 11T228 30T192 47Q166 58 142 70T100 99T71 138T60 191Q60 274 144 312V314Q70 350 70 424ZM300
186Q300 207 292 222T269 248T237 269T184 293Q120 264 120 202Q120 182 128 167T150 141T183 121T236 97Q300 125 300 186Z" />
<glyph unicode="&#xa8;" glyph-name="dieresis" horiz-adv-x="300" d="M35 496Q35 516 47 528T77 540Q97 540 108 528T120 497Q120 478 109 467T76 455Q58 455 47 466T35 496ZM180 496Q180 516 192 528T222 540Q242 540 253 528T265 497Q265 478 254 467T221 455Q203
455 192 466T180 496Z" />
<glyph unicode="&#xa9;" glyph-name="copyright" horiz-adv-x="630" d="M430 135Q377 103 316 103Q239 103 195 148T150 269Q150 345 194 391T316 437Q374 437 430 410V317H380V376Q354 390 315 390Q262 390 236 360T210 274Q210 217 238 184T320 150Q371 150
430 184V135ZM40 270Q40 396 116 473T314 550Q436 550 513 473T590 270Q590 144 513 67T314 -10Q192 -10 116 67T40 270ZM90 270Q90 161 149 98T314 35Q419 35 479 98T540 270Q540 381 480 443T314 505Q209 505 150 443T90 270Z" />
<glyph unicode="&#xaa;" glyph-name="ordfeminine" horiz-adv-x="330" d="M50 487Q101 510 158 510Q211 510 238 485T265 411V267H310V220H216L213 255H211Q172 210 119 210Q79 210 55 232T30 292Q30 385 195 385H210V400Q210 463 151 463Q99 463 50 439V487ZM194
345Q142 345 114 334T86 295Q86 277 98 267T133 257Q180 257 210 297V345H194Z" />
<glyph unicode="&#xab;" glyph-name="guillemotleft" horiz-adv-x="330" d="M30 195L115 330H180L95 195L180 60H115L30 195ZM150 195L235 330H300L215 195L300 60H235L150 195Z" />
<glyph unicode="&#xac;" glyph-name="logicalnot" horiz-adv-x="390" d="M354 50H300V183H30V237H354V50Z" />
<glyph unicode="&#xad;" glyph-name="uni00AD" horiz-adv-x="210" d="M30 230H180V180H30V230Z" />
<glyph unicode="&#xae;" glyph-name="registered" horiz-adv-x="630" d="M265 150H306V104H170V150H210V390H170V436H308Q376 436 408 413T440 346Q440 310 421 285T354 251V249Q366 246 379 237T406 206L439 150H480V104H398Q386 128 372 152L348 194Q332 223
319 232T283 241H265V150ZM296 285Q341 285 360 298T380 341Q380 366 362 378T303 390H265V285H296ZM40 270Q40 396 116 473T314 550Q436 550 513 473T590 270Q590 144 513 67T314 -10Q192 -10 116 67T40 270ZM90 270Q90 161 149 98T314 35Q419 35 479 98T540 270Q540
381 480 443T314 505Q209 505 150 443T90 270Z" />
<glyph unicode="&#xaf;" glyph-name="overscore" horiz-adv-x="270" d="M30 510H240V462H30V510Z" />
<glyph unicode="&#xb0;" glyph-name="degree" horiz-adv-x="300" d="M30 425Q30 479 64 514T155 550Q210 550 245 515T280 425Q280 371 245 336T155 300Q99 300 65 335T30 425ZM84 425Q84 392 104 371T155 350Q188 350 207 371T227 425Q227 458 208 478T155 499Q124
499 104 479T84 425Z" />
<glyph unicode="&#xb1;" glyph-name="plusminus" horiz-adv-x="390" d="M222 80H168V183H30V237H168V340H222V237H360V183H222V80ZM30 3V57H360V3H30Z" />
<glyph unicode="&#xb2;" glyph-name="twosuperior" horiz-adv-x="330" d="M290 310V220H40V264Q117 318 170 369T224 461Q224 482 209 493T162 504Q128 504 97 490V430H50V518Q107 550 170 550Q225 550 252 528T280 466Q280 412 232 363T122 268V266H243V310H290Z" />
<glyph unicode="&#xb3;" glyph-name="threesuperior" horiz-adv-x="330" d="M40 275Q88 256 141 256Q181 256 207 268T234 310Q234 334 211 347T133 360H110V404H126Q175 404 197 418T220 458Q220 478 204 491T151 504Q115 504 87 494V450H40V521Q95 550 155 550Q208
550 241 527T274 464Q274 412 218 391V389Q290 373 290 310Q290 262 249 236T144 210Q82 210 40 226V275Z" />
<glyph unicode="&#xb4;" glyph-name="acute" horiz-adv-x="180" d="M86 550H156L76 430H30L86 550Z" />
<glyph unicode="&#xb5;" glyph-name="uni00B5" horiz-adv-x="390" d="M50 -180V390H110V98Q131 40 185 40Q241 40 270 99V390H330V50H380V0H277L274 45H272Q239 -10 188 -10Q135 -10 112 35H110V-180H50Z" />
<glyph unicode="&#xb6;" glyph-name="paragraph" horiz-adv-x="450" d="M180 -150V240Q99 242 55 282T10 396Q10 465 52 502T184 540H410V490H360V-150H300V490H240V-150H180Z" />
<glyph unicode="&#xb7;" glyph-name="middot" horiz-adv-x="180" d="M40 193Q40 217 53 231T90 246Q113 246 126 232T140 197Q140 172 126 158T88 144Q66 144 53 158T40 193Z" />
<glyph unicode="&#xb8;" glyph-name="cedilla" horiz-adv-x="210" d="M30 -135Q49 -139 69 -139Q88 -139 99 -132T110 -106Q110 -74 53 -74L83 8H129L110 -44Q140 -51 152 -68T165 -108Q165 -143 139 -164T71 -185Q51 -185 30 -180V-135Z" />
<glyph unicode="&#xb9;" glyph-name="onesuperior" horiz-adv-x="240" d="M120 220V493H60V540H175V220H120Z" />
<glyph unicode="&#xba;" glyph-name="ordmasculine" horiz-adv-x="330" d="M30 359Q30 426 67 468T170 510Q231 510 265 470T300 365Q300 296 263 253T164 210Q102 210 66 251T30 359ZM87 366Q87 313 107 285T167 257Q206 257 224 283T243 361Q243 410 225 436T164
463Q127 463 107 440T87 366Z" />
<glyph unicode="&#xbb;" glyph-name="guillemotright" horiz-adv-x="330" d="M180 195L95 60H30L115 195L30 330H95L180 195ZM300 195L215 60H150L235 195L150 330H215L300 195Z" />
<glyph unicode="&#xbc;" glyph-name="onequarter" horiz-adv-x="690" d="M120 220V493H60V540H175V220H120ZM545 550L175 0H115L485 550H545ZM540 86H370V126L547 336H600V131H660V86H600V11H540V86ZM433 131H540V259H538L432 133L433 131Z" />
<glyph unicode="&#xbd;" glyph-name="onehalf" horiz-adv-x="720" d="M120 220V493H60V540H175V220H120ZM545 550L175 0H115L485 550H545ZM680 101V11H430V55Q507 109 560 160T614 252Q614 273 599 284T552 295Q518 295 487 281V221H440V309Q497 341 560 341Q615
341 642 319T670 257Q670 203 622 154T512 59V57H633V101H680Z" />
<glyph unicode="&#xbe;" glyph-name="threequarters" horiz-adv-x="750" d="M40 275Q88 256 141 256Q181 256 207 268T234 310Q234 334 211 347T133 360H110V404H126Q175 404 197 418T220 458Q220 478 204 491T151 504Q115 504 87 494V450H40V521Q95 550 155 550Q208
550 241 527T274 464Q274 412 218 391V389Q290 373 290 310Q290 262 249 236T144 210Q82 210 40 226V275ZM605 550L235 0H175L545 550H605ZM600 86H430V126L607 336H660V131H720V86H660V11H600V86ZM493 131H600V259H598L492 133L493 131Z" />
<glyph unicode="&#xbf;" glyph-name="questiondown" horiz-adv-x="300" d="M240 -147Q201 -160 159 -160Q98 -160 58 -125T18 -30Q18 14 36 44T87 100Q120 127 136 148T153 200Q153 218 147 240H191Q202 210 202 180Q202 146 187 121T143 73Q116 51 98 30T80 -28Q80
-67 104 -87T169 -107Q201 -107 240 -95V-147ZM220 351Q220 327 207 313T170 298Q147 298 134 312T120 347Q120 372 134 386T172 400Q194 400 207 386T220 351Z" />
<glyph unicode="&#xc0;" glyph-name="Agrave" horiz-adv-x="480" d="M160 50V0H0V50H50L211 545H269L433 50H480V0H320V50H370L321 200H154L107 50H160ZM235 460L169 250H305L237 460H235ZM265 580H221L135 690H205L265 580Z" />
<glyph unicode="&#xc1;" glyph-name="Aacute" horiz-adv-x="480" d="M160 50V0H0V50H50L211 545H269L433 50H480V0H320V50H370L321 200H154L107 50H160ZM235 460L169 250H305L237 460H235ZM275 690H345L259 580H215L275 690Z" />
<glyph unicode="&#xc2;" glyph-name="Acircumflex" horiz-adv-x="480" d="M160 50V0H0V50H50L211 545H269L433 50H480V0H320V50H370L321 200H154L107 50H160ZM235 460L169 250H305L237 460H235ZM239 644L190 580H130L215 690H265L350 580H290L241 644H239Z" />
<glyph unicode="&#xc3;" glyph-name="Atilde" horiz-adv-x="480" d="M160 50V0H0V50H50L211 545H269L433 50H480V0H320V50H370L321 200H154L107 50H160ZM235 460L169 250H305L237 460H235ZM135 583V634Q158 655 189 655Q214 655 249 636Q275 623 293 623Q323 623
343 646H345V595Q322 574 291 574Q266 574 231 593Q205 606 187 606Q157 606 137 583H135Z" />
<glyph unicode="&#xc4;" glyph-name="Adieresis" horiz-adv-x="480" d="M160 50V0H0V50H50L211 545H269L433 50H480V0H320V50H370L321 200H154L107 50H160ZM235 460L169 250H305L237 460H235ZM125 620Q125 640 136 651T166 663Q186 663 197 652T208 621Q208 602
197 591T165 580Q147 580 136 591T125 620ZM272 620Q272 640 283 651T313 663Q333 663 344 652T355 621Q355 602 344 591T312 580Q294 580 283 591T272 620Z" />
<glyph unicode="&#xc5;" glyph-name="Aring" horiz-adv-x="480" d="M160 50V0H0V50H50L211 545H269L433 50H480V0H320V50H370L321 200H154L107 50H160ZM235 460L169 250H305L237 460H235ZM168 637Q168 667 188 683T242 700Q276 700 294 684T312 639Q312 611 293
593T238 575Q205 575 187 592T168 637ZM207 639Q207 621 215 613T240 605Q255 605 264 614T273 639Q273 654 264 662T240 670Q224 670 216 662T207 639Z" />
<glyph unicode="&#xc6;" glyph-name="AE" horiz-adv-x="660" d="M577 50V120H630V0H270V50H330V200H175L97 50H140V0H-10V50H36L293 540H620V420H567V490H390V300H490V350H540V190H490V250H390V50H577ZM202 250H330V490H328L202 250Z" />
<glyph unicode="&#xc7;" glyph-name="Ccedilla" horiz-adv-x="450" d="M420 30Q346 -10 270 -10Q163 -10 102 64T40 270Q40 400 103 475T271 550Q344 550 420 518V400H365V479Q325 495 269 495Q189 495 146 441T103 274Q103 157 148 101T273 45Q340 45 420 85V30ZM195
-135Q214 -139 234 -139Q253 -139 264 -132T275 -106Q275 -74 218 -74L248 8H294L275 -44Q305 -51 317 -68T330 -108Q330 -143 304 -164T236 -185Q216 -185 195 -180V-135Z" />
<glyph unicode="&#xc8;" glyph-name="Egrave" horiz-adv-x="420" d="M337 50V120H390V0H30V50H90V490H30V540H380V420H327V490H150V300H250V350H300V190H250V250H150V50H337ZM250 580H206L120 690H190L250 580Z" />
<glyph unicode="&#xc9;" glyph-name="Eacute" horiz-adv-x="420" d="M337 50V120H390V0H30V50H90V490H30V540H380V420H327V490H150V300H250V350H300V190H250V250H150V50H337ZM260 690H330L244 580H200L260 690Z" />
<glyph unicode="&#xca;" glyph-name="Ecircumflex" horiz-adv-x="420" d="M337 50V120H390V0H30V50H90V490H30V540H380V420H327V490H150V300H250V350H300V190H250V250H150V50H337ZM224 644L175 580H115L200 690H250L335 580H275L226 644H224Z" />
<glyph unicode="&#xcb;" glyph-name="Edieresis" horiz-adv-x="420" d="M337 50V120H390V0H30V50H90V490H30V540H380V420H327V490H150V300H250V350H300V190H250V250H150V50H337ZM110 620Q110 640 121 651T151 663Q171 663 182 652T193 621Q193 602 182 591T150
580Q132 580 121 591T110 620ZM257 620Q257 640 268 651T298 663Q318 663 329 652T340 621Q340 602 329 591T297 580Q279 580 268 591T257 620Z" />
<glyph unicode="&#xcc;" glyph-name="Igrave" horiz-adv-x="240" d="M30 50H90V490H30V540H210V490H150V50H210V0H30V50ZM145 580H101L15 690H85L145 580Z" />
<glyph unicode="&#xcd;" glyph-name="Iacute" horiz-adv-x="240" d="M30 50H90V490H30V540H210V490H150V50H210V0H30V50ZM155 690H225L139 580H95L155 690Z" />
<glyph unicode="&#xce;" glyph-name="Icircumflex" horiz-adv-x="240" d="M30 50H90V490H30V540H210V490H150V50H210V0H30V50ZM119 644L70 580H10L95 690H145L230 580H170L121 644H119Z" />
<glyph unicode="&#xcf;" glyph-name="Idieresis" horiz-adv-x="240" d="M30 50H90V490H30V540H210V490H150V50H210V0H30V50ZM5 620Q5 640 16 651T46 663Q66 663 77 652T88 621Q88 602 77 591T45 580Q27 580 16 591T5 620ZM152 620Q152 640 163 651T193 663Q213
663 224 652T235 621Q235 602 224 591T192 580Q174 580 163 591T152 620Z" />
<glyph unicode="&#xd0;" glyph-name="Eth" horiz-adv-x="510" d="M30 300H90V490H30V540H209Q339 540 401 476T463 284Q463 144 393 72T191 0H30V50H90V250H30V300ZM150 50H198Q295 50 347 105T400 278Q400 388 352 439T198 490H150V300H250V250H150V50Z" />
<glyph unicode="&#xd1;" glyph-name="Ntilde" horiz-adv-x="540" d="M394 490H334V540H510V490H450V0H392L148 421H146V50H206V0H30V50H90V490H30V540H150L392 124H394V490ZM165 583V634Q188 655 219 655Q244 655 279 636Q305 623 323 623Q353 623 373 646H375V595Q352
574 321 574Q296 574 261 593Q235 606 217 606Q187 606 167 583H165Z" />
<glyph unicode="&#xd2;" glyph-name="Ograve" horiz-adv-x="510" d="M47 271Q47 401 104 475T260 550Q356 550 409 478T463 278Q463 142 406 66T252 -10Q159 -10 103 64T47 271ZM110 274Q110 162 148 104T255 45Q323 45 361 103T400 275Q400 384 364 439T257 495Q186
495 148 441T110 274ZM280 580H236L150 690H220L280 580Z" />
<glyph unicode="&#xd3;" glyph-name="Oacute" horiz-adv-x="510" d="M47 271Q47 401 104 475T260 550Q356 550 409 478T463 278Q463 142 406 66T252 -10Q159 -10 103 64T47 271ZM110 274Q110 162 148 104T255 45Q323 45 361 103T400 275Q400 384 364 439T257 495Q186
495 148 441T110 274ZM290 690H360L274 580H230L290 690Z" />
<glyph unicode="&#xd4;" glyph-name="Ocircumflex" horiz-adv-x="510" d="M47 271Q47 401 104 475T260 550Q356 550 409 478T463 278Q463 142 406 66T252 -10Q159 -10 103 64T47 271ZM110 274Q110 162 148 104T255 45Q323 45 361 103T400 275Q400 384 364 439T257
495Q186 495 148 441T110 274ZM254 644L205 580H145L230 690H280L365 580H305L256 644H254Z" />
<glyph unicode="&#xd5;" glyph-name="Otilde" horiz-adv-x="510" d="M47 271Q47 401 104 475T260 550Q356 550 409 478T463 278Q463 142 406 66T252 -10Q159 -10 103 64T47 271ZM110 274Q110 162 148 104T255 45Q323 45 361 103T400 275Q400 384 364 439T257 495Q186
495 148 441T110 274ZM150 583V634Q173 655 204 655Q229 655 264 636Q290 623 308 623Q338 623 358 646H360V595Q337 574 306 574Q281 574 246 593Q220 606 202 606Q172 606 152 583H150Z" />
<glyph unicode="&#xd6;" glyph-name="Odieresis" horiz-adv-x="510" d="M47 271Q47 401 104 475T260 550Q356 550 409 478T463 278Q463 142 406 66T252 -10Q159 -10 103 64T47 271ZM110 274Q110 162 148 104T255 45Q323 45 361 103T400 275Q400 384 364 439T257
495Q186 495 148 441T110 274ZM140 620Q140 640 151 651T181 663Q201 663 212 652T223 621Q223 602 212 591T180 580Q162 580 151 591T140 620ZM287 620Q287 640 298 651T328 663Q348 663 359 652T370 621Q370 602 359 591T327 580Q309 580 298 591T287 620Z" />
<glyph unicode="&#xd7;" glyph-name="multiply" horiz-adv-x="395" d="M355 88L317 50L195 172L73 50L35 88L157 210L35 332L73 370L195 248L317 370L355 332L233 210L355 88Z" />
<glyph unicode="&#xd8;" glyph-name="Oslash" horiz-adv-x="510" d="M47 271Q47 401 104 475T260 550Q327 550 375 514L412 575L450 552L407 481Q463 409 463 278Q463 142 406 66T252 -10Q183 -10 137 30L98 -35L60 -12L105 63Q47 136 47 271ZM110 274Q110 176
139 120L344 463Q310 495 257 495Q186 495 148 441T110 274ZM255 45Q323 45 361 103T400 275Q400 369 373 423L167 80Q203 45 255 45Z" />
<glyph unicode="&#xd9;" glyph-name="Ugrave" horiz-adv-x="540" d="M140 173Q140 110 175 78T269 45Q333 45 368 79T404 176V490H343V540H520V490H460V179Q460 95 409 43T268 -10Q182 -10 131 39T80 172V490H20V540H200V490H140V173ZM295 580H251L165 690H235L295 580Z" />
<glyph unicode="&#xda;" glyph-name="Uacute" horiz-adv-x="540" d="M140 173Q140 110 175 78T269 45Q333 45 368 79T404 176V490H343V540H520V490H460V179Q460 95 409 43T268 -10Q182 -10 131 39T80 172V490H20V540H200V490H140V173ZM305 690H375L289 580H245L305 690Z" />
<glyph unicode="&#xdb;" glyph-name="Ucircumflex" horiz-adv-x="540" d="M140 173Q140 110 175 78T269 45Q333 45 368 79T404 176V490H343V540H520V490H460V179Q460 95 409 43T268 -10Q182 -10 131 39T80 172V490H20V540H200V490H140V173ZM269 644L220 580H160L245
690H295L380 580H320L271 644H269Z" />
<glyph unicode="&#xdc;" glyph-name="Udieresis" horiz-adv-x="540" d="M140 173Q140 110 175 78T269 45Q333 45 368 79T404 176V490H343V540H520V490H460V179Q460 95 409 43T268 -10Q182 -10 131 39T80 172V490H20V540H200V490H140V173ZM155 620Q155 640 166
651T196 663Q216 663 227 652T238 621Q238 602 227 591T195 580Q177 580 166 591T155 620ZM302 620Q302 640 313 651T343 663Q363 663 374 652T385 621Q385 602 374 591T342 580Q324 580 313 591T302 620Z" />
<glyph unicode="&#xdd;" glyph-name="Yacute" horiz-adv-x="480" d="M210 240L46 490H0V540H160V490H114L244 292L370 490H320V540H480V490H433L270 240V50H340V0H140V50H210V240ZM275 690H345L259 580H215L275 690Z" />
<glyph unicode="&#xde;" glyph-name="Thorn" horiz-adv-x="420" d="M30 50H90V490H30V540H210V490H150V440H211Q299 440 341 402T383 290Q383 207 336 164T197 120H150V50H210V0H30V50ZM200 170Q258 170 289 196T320 283Q320 344 292 367T205 390H150V170H200Z" />
<glyph unicode="&#xdf;" glyph-name="germandbls" horiz-adv-x="450" d="M140 0H30V50H80V340H30V390H80V455Q80 526 126 565T245 605Q311 605 350 573T390 485Q390 458 383 440T365 408T341 385T314 367Q285 350 273 337T260 304Q260 281 280 265T335 229Q351
220 365 210T392 187T412 155T420 112Q420 55 383 23T283 -10Q246 -10 210 0V53Q247 40 283 40Q323 40 341 55T360 102Q360 128 344 144T295 179Q277 189 261 200T232 224T211 254T203 294Q203 317 209 332T224 358T246 380T273 400Q287 409 297 416T315 433T327
454T331 482Q331 519 309 538T240 557Q193 557 167 535T140 464V0Z" />
<glyph unicode="&#xe0;" glyph-name="agrave" horiz-adv-x="390" d="M60 361Q129 400 201 400Q263 400 296 372T330 281V50H380V0H276L273 45L271 46Q223 -10 153 -10Q101 -10 71 20T40 98Q40 161 94 192T253 223H270V282Q270 319 253 334T194 350Q145 350 112
334V280H60V361ZM246 180Q177 180 140 163T103 101Q103 69 121 55T167 40Q227 40 270 89V180H246ZM226 430H180L100 550H170L226 430Z" />
<glyph unicode="&#xe1;" glyph-name="aacute" horiz-adv-x="390" d="M60 361Q129 400 201 400Q263 400 296 372T330 281V50H380V0H276L273 45L271 46Q223 -10 153 -10Q101 -10 71 20T40 98Q40 161 94 192T253 223H270V282Q270 319 253 334T194 350Q145 350 112
334V280H60V361ZM246 180Q177 180 140 163T103 101Q103 69 121 55T167 40Q227 40 270 89V180H246ZM220 550H290L210 430H164L220 550Z" />
<glyph unicode="&#xe2;" glyph-name="acircumflex" horiz-adv-x="390" d="M60 361Q129 400 201 400Q263 400 296 372T330 281V50H380V0H276L273 45L271 46Q223 -10 153 -10Q101 -10 71 20T40 98Q40 161 94 192T253 223H270V282Q270 319 253 334T194 350Q145 350
112 334V280H60V361ZM246 180Q177 180 140 163T103 101Q103 69 121 55T167 40Q227 40 270 89V180H246ZM194 505L137 430H77L171 550H219L313 430H253L196 505H194Z" />
<glyph unicode="&#xe3;" glyph-name="atilde" horiz-adv-x="390" d="M60 361Q129 400 201 400Q263 400 296 372T330 281V50H380V0H276L273 45L271 46Q223 -10 153 -10Q101 -10 71 20T40 98Q40 161 94 192T253 223H270V282Q270 319 253 334T194 350Q145 350 112
334V280H60V361ZM246 180Q177 180 140 163T103 101Q103 69 121 55T167 40Q227 40 270 89V180H246ZM80 463V514Q111 536 144 536Q170 536 205 518Q230 506 248 506Q280 506 308 530H310V479Q279 457 246 457Q220 457 185 475Q160 487 142 487Q110 487 82 463H80Z"
/>
<glyph unicode="&#xe4;" glyph-name="adieresis" horiz-adv-x="390" d="M60 361Q129 400 201 400Q263 400 296 372T330 281V50H380V0H276L273 45L271 46Q223 -10 153 -10Q101 -10 71 20T40 98Q40 161 94 192T253 223H270V282Q270 319 253 334T194 350Q145 350
112 334V280H60V361ZM246 180Q177 180 140 163T103 101Q103 69 121 55T167 40Q227 40 270 89V180H246ZM80 496Q80 516 92 528T122 540Q142 540 153 528T165 497Q165 478 154 467T121 455Q103 455 92 466T80 496ZM225 496Q225 516 237 528T267 540Q287 540 298 528T310
497Q310 478 299 467T266 455Q248 455 237 466T225 496Z" />
<glyph unicode="&#xe5;" glyph-name="aring" horiz-adv-x="390" d="M60 361Q129 400 201 400Q263 400 296 372T330 281V50H380V0H276L273 45L271 46Q223 -10 153 -10Q101 -10 71 20T40 98Q40 161 94 192T253 223H270V282Q270 319 253 334T194 350Q145 350 112
334V280H60V361ZM246 180Q177 180 140 163T103 101Q103 69 121 55T167 40Q227 40 270 89V180H246ZM120 495Q120 525 141 542T196 560Q232 560 251 543T270 496Q270 468 250 449T193 430Q159 430 140 448T120 495ZM161 496Q161 478 170 470T195 461Q210 461 219
470T229 496Q229 512 220 520T195 529Q179 529 170 521T161 496Z" />
<glyph unicode="&#xe6;" glyph-name="ae" horiz-adv-x="570" d="M530 75V21Q482 -10 418 -10Q332 -10 289 59H287Q230 -10 149 -10Q99 -10 70 20T40 98Q40 161 92 192T244 223H260V282Q260 319 244 334T189 350Q143 350 112 334V280H60V361Q126 400 196 400Q279
400 304 347H306Q349 400 416 400Q471 400 505 354T540 223V192H320Q322 122 346 83T423 42Q481 42 530 75ZM237 180Q174 180 140 163T105 101Q105 70 121 55T160 40Q222 39 271 100Q260 133 258 180H237ZM480 240Q480 297 461 323T406 350Q372 350 349 323T321
240H480Z" />
<glyph unicode="&#xe7;" glyph-name="ccedilla" horiz-adv-x="360" d="M320 15Q272 -10 215 -10Q134 -10 87 42T40 191Q40 289 89 344T218 400Q273 400 320 377V280H267V341Q245 350 213 350Q157 350 130 315T103 202Q103 120 132 81T216 42Q270 42 320 69V15ZM135
-135Q154 -139 174 -139Q193 -139 204 -132T215 -106Q215 -74 158 -74L188 8H234L215 -44Q245 -51 257 -68T270 -108Q270 -143 244 -164T176 -185Q156 -185 135 -180V-135Z" />
<glyph unicode="&#xe8;" glyph-name="egrave" horiz-adv-x="360" d="M320 75V21Q270 -10 203 -10Q124 -10 80 43T35 191Q35 289 82 344T200 400Q258 400 294 354T330 223V192H97Q99 122 124 83T206 42Q268 42 320 75ZM270 240Q270 297 249 323T190 350Q153 350
128 323T98 240H270ZM226 430H180L100 550H170L226 430Z" />
<glyph unicode="&#xe9;" glyph-name="eacute" horiz-adv-x="360" d="M320 75V21Q270 -10 203 -10Q124 -10 80 43T35 191Q35 289 82 344T200 400Q258 400 294 354T330 223V192H97Q99 122 124 83T206 42Q268 42 320 75ZM270 240Q270 297 249 323T190 350Q153 350
128 323T98 240H270ZM220 550H290L210 430H164L220 550Z" />
<glyph unicode="&#xea;" glyph-name="ecircumflex" horiz-adv-x="360" d="M320 75V21Q270 -10 203 -10Q124 -10 80 43T35 191Q35 289 82 344T200 400Q258 400 294 354T330 223V192H97Q99 122 124 83T206 42Q268 42 320 75ZM270 240Q270 297 249 323T190 350Q153
350 128 323T98 240H270ZM194 505L137 430H77L171 550H219L313 430H253L196 505H194Z" />
<glyph unicode="&#xeb;" glyph-name="edieresis" horiz-adv-x="360" d="M320 75V21Q270 -10 203 -10Q124 -10 80 43T35 191Q35 289 82 344T200 400Q258 400 294 354T330 223V192H97Q99 122 124 83T206 42Q268 42 320 75ZM270 240Q270 297 249 323T190 350Q153
350 128 323T98 240H270ZM80 496Q80 516 92 528T122 540Q142 540 153 528T165 497Q165 478 154 467T121 455Q103 455 92 466T80 496ZM225 496Q225 516 237 528T267 540Q287 540 298 528T310 497Q310 478 299 467T266 455Q248 455 237 466T225 496Z" />
<glyph unicode="&#xec;" glyph-name="igrave" horiz-adv-x="210" d="M30 50H80V340H30V390H140V50H190V0H30V50ZM136 430H90L10 550H80L136 430Z" />
<glyph unicode="&#xed;" glyph-name="iacute" horiz-adv-x="210" d="M30 50H80V340H30V390H140V50H190V0H30V50ZM130 550H200L120 430H74L130 550Z" />
<glyph unicode="&#xee;" glyph-name="icircumflex" horiz-adv-x="210" d="M30 50H80V340H30V390H140V50H190V0H30V50ZM104 505L47 430H-13L81 550H129L223 430H163L106 505H104Z" />
<glyph unicode="&#xef;" glyph-name="idieresis" horiz-adv-x="210" d="M30 50H80V340H30V390H140V50H190V0H30V50ZM-10 496Q-10 516 2 528T32 540Q52 540 63 528T75 497Q75 478 64 467T31 455Q13 455 2 466T-10 496ZM135 496Q135 516 147 528T177 540Q197 540
208 528T220 497Q220 478 209 467T176 455Q158 455 147 466T135 496Z" />
<glyph unicode="&#xf0;" glyph-name="eth" horiz-adv-x="420" d="M126 472L193 522Q152 546 88 550V600Q173 597 235 554L302 604L330 568L271 524Q369 423 369 242Q369 122 324 56T199 -10Q124 -10 80 45T35 191Q35 281 82 335T206 390Q250 390 290 369L292 370Q275
443 230 493L154 436L126 472ZM208 340Q152 340 125 306T98 198Q98 122 124 81T203 40Q256 40 281 88T306 237Q306 280 301 317Q256 340 208 340Z" />
<glyph unicode="&#xf1;" glyph-name="ntilde" horiz-adv-x="420" d="M30 50H80V340H30V390H136L139 338H140Q194 400 264 400Q314 400 337 372T360 291V50H410V0H260V50H300V283Q300 323 286 336T247 350Q189 350 140 288V50H180V0H30V50ZM110 463V514Q141 536
174 536Q200 536 235 518Q260 506 278 506Q310 506 338 530H340V479Q309 457 276 457Q250 457 215 475Q190 487 172 487Q140 487 112 463H110Z" />
<glyph unicode="&#xf2;" glyph-name="ograve" horiz-adv-x="390" d="M35 193Q35 288 81 344T199 400Q270 400 312 348T355 202Q355 106 310 48T192 -10Q120 -10 78 45T35 193ZM98 202Q98 123 123 82T197 40Q242 40 267 78T292 196Q292 350 194 350Q147 350 123
315T98 202ZM226 430H180L100 550H170L226 430Z" />
<glyph unicode="&#xf3;" glyph-name="oacute" horiz-adv-x="390" d="M35 193Q35 288 81 344T199 400Q270 400 312 348T355 202Q355 106 310 48T192 -10Q120 -10 78 45T35 193ZM98 202Q98 123 123 82T197 40Q242 40 267 78T292 196Q292 350 194 350Q147 350 123
315T98 202ZM220 550H290L210 430H164L220 550Z" />
<glyph unicode="&#xf4;" glyph-name="ocircumflex" horiz-adv-x="390" d="M35 193Q35 288 81 344T199 400Q270 400 312 348T355 202Q355 106 310 48T192 -10Q120 -10 78 45T35 193ZM98 202Q98 123 123 82T197 40Q242 40 267 78T292 196Q292 350 194 350Q147 350
123 315T98 202ZM194 505L137 430H77L171 550H219L313 430H253L196 505H194Z" />
<glyph unicode="&#xf5;" glyph-name="otilde" horiz-adv-x="390" d="M35 193Q35 288 81 344T199 400Q270 400 312 348T355 202Q355 106 310 48T192 -10Q120 -10 78 45T35 193ZM98 202Q98 123 123 82T197 40Q242 40 267 78T292 196Q292 350 194 350Q147 350 123
315T98 202ZM80 463V514Q111 536 144 536Q170 536 205 518Q230 506 248 506Q280 506 308 530H310V479Q279 457 246 457Q220 457 185 475Q160 487 142 487Q110 487 82 463H80Z" />
<glyph unicode="&#xf6;" glyph-name="odieresis" horiz-adv-x="390" d="M35 193Q35 288 81 344T199 400Q270 400 312 348T355 202Q355 106 310 48T192 -10Q120 -10 78 45T35 193ZM98 202Q98 123 123 82T197 40Q242 40 267 78T292 196Q292 350 194 350Q147 350
123 315T98 202ZM80 496Q80 516 92 528T122 540Q142 540 153 528T165 497Q165 478 154 467T121 455Q103 455 92 466T80 496ZM225 496Q225 516 237 528T267 540Q287 540 298 528T310 497Q310 478 299 467T266 455Q248 455 237 466T225 496Z" />
<glyph unicode="&#xf7;" glyph-name="divide" horiz-adv-x="390" d="M152 85Q152 106 163 118T196 130Q215 130 226 119T237 87Q237 67 226 56T195 44Q175 44 164 55T152 85ZM152 331Q152 352 163 364T196 376Q215 376 226 365T237 333Q237 313 226 302T195 290Q175
290 164 301T152 331ZM30 183V237H360V183H30Z" />
<glyph unicode="&#xf8;" glyph-name="oslash" horiz-adv-x="390" d="M35 193Q35 285 81 342T199 400Q248 400 284 374L316 425L350 405L313 346Q355 293 355 202Q355 108 310 49T192 -10Q143 -10 107 17L75 -35L40 -15L78 46Q35 102 35 193ZM98 202Q98 142 114
102L255 327Q231 350 194 350Q149 350 124 315T98 202ZM197 40Q242 40 267 79T292 196Q292 253 278 289L137 65Q160 40 197 40Z" />
<glyph unicode="&#xf9;" glyph-name="ugrave" horiz-adv-x="420" d="M290 340H240V390H350V50H400V0H295L292 43H290Q246 -10 179 -10Q126 -10 98 18T70 99V340H20V390H130V109Q130 69 147 55T195 40Q253 40 290 87V340ZM226 430H180L100 550H170L226 430Z" />
<glyph unicode="&#xfa;" glyph-name="uacute" horiz-adv-x="420" d="M290 340H240V390H350V50H400V0H295L292 43H290Q246 -10 179 -10Q126 -10 98 18T70 99V340H20V390H130V109Q130 69 147 55T195 40Q253 40 290 87V340ZM220 550H290L210 430H164L220 550Z" />
<glyph unicode="&#xfb;" glyph-name="ucircumflex" horiz-adv-x="420" d="M290 340H240V390H350V50H400V0H295L292 43H290Q246 -10 179 -10Q126 -10 98 18T70 99V340H20V390H130V109Q130 69 147 55T195 40Q253 40 290 87V340ZM194 505L137 430H77L171 550H219L313
430H253L196 505H194Z" />
<glyph unicode="&#xfc;" glyph-name="udieresis" horiz-adv-x="420" d="M290 340H240V390H350V50H400V0H295L292 43H290Q246 -10 179 -10Q126 -10 98 18T70 99V340H20V390H130V109Q130 69 147 55T195 40Q253 40 290 87V340ZM80 496Q80 516 92 528T122 540Q142
540 153 528T165 497Q165 478 154 467T121 455Q103 455 92 466T80 496ZM225 496Q225 516 237 528T267 540Q287 540 298 528T310 497Q310 478 299 467T266 455Q248 455 237 466T225 496Z" />
<glyph unicode="&#xfd;" glyph-name="yacute" horiz-adv-x="390" d="M340 340L211 -25Q199 -60 186 -89T155 -139T113 -172T56 -183Q38 -183 20 -180V-125Q39 -128 57 -128Q73 -128 86 -125T112 -111T137 -76T166 -5H161L45 340H0V390H150V340H106L193 72H195L286
340H240V390H390V340H340ZM220 550H290L210 430H164L220 550Z" />
<glyph unicode="&#xfe;" glyph-name="thorn" horiz-adv-x="420" d="M380 207Q380 111 333 51T212 -10Q174 -10 137 8L135 7V-130H195V-180H25V-130H75V550H25V600H135V365L137 364Q179 400 236 400Q301 400 340 345T380 207ZM317 198Q317 267 293 308T218 350Q174
350 135 317V55Q165 40 205 40Q258 40 287 79T317 198Z" />
<glyph unicode="&#xff;" glyph-name="ydieresis" horiz-adv-x="390" d="M340 340L211 -25Q199 -60 186 -89T155 -139T113 -172T56 -183Q38 -183 20 -180V-125Q39 -128 57 -128Q73 -128 86 -125T112 -111T137 -76T166 -5H161L45 340H0V390H150V340H106L193 72H195L286
340H240V390H390V340H340ZM80 496Q80 516 92 528T122 540Q142 540 153 528T165 497Q165 478 154 467T121 455Q103 455 92 466T80 496ZM225 496Q225 516 237 528T267 540Q287 540 298 528T310 497Q310 478 299 467T266 455Q248 455 237 466T225 496Z" />
<glyph unicode="&#x2013;" glyph-name="endash" horiz-adv-x="420" d="M30 230H390V180H30V230Z" />
<glyph unicode="&#x2014;" glyph-name="emdash" horiz-adv-x="810" d="M30 230H780V180H30V230Z" />
<glyph unicode="&#x2018;" glyph-name="quoteleft" horiz-adv-x="150" d="M73 340Q30 381 30 425Q30 487 101 550L130 523Q90 484 90 448Q90 419 126 385L73 340Z" />
<glyph unicode="&#x2019;" glyph-name="quoteright" horiz-adv-x="150" d="M77 550Q120 509 120 465Q120 403 49 340L20 367Q60 406 60 442Q60 471 24 505L77 550Z" />
<glyph unicode="&#x201a;" glyph-name="quotesinglbase" horiz-adv-x="150" d="M77 118Q120 77 120 33Q120 -29 49 -92L20 -65Q60 -26 60 10Q60 39 24 73L77 118Z" />
<glyph unicode="&#x201c;" glyph-name="quotedblleft" horiz-adv-x="270" d="M73 340Q30 381 30 425Q30 487 101 550L130 523Q90 484 90 448Q90 419 126 385L73 340ZM193 340Q150 381 150 425Q150 487 221 550L250 523Q210 484 210 448Q210 419 246 385L193 340Z" />
<glyph unicode="&#x201d;" glyph-name="quotedblright" horiz-adv-x="270" d="M77 550Q120 509 120 465Q120 403 49 340L20 367Q60 406 60 442Q60 471 24 505L77 550ZM197 550Q240 509 240 465Q240 403 169 340L140 367Q180 406 180 442Q180 471 144 505L197 550Z" />
<glyph unicode="&#x201e;" glyph-name="quotedblbase" horiz-adv-x="270" d="M77 118Q120 77 120 33Q120 -29 49 -92L20 -65Q60 -26 60 10Q60 39 24 73L77 118ZM197 118Q240 77 240 33Q240 -29 169 -92L140 -65Q180 -26 180 10Q180 39 144 73L197 118Z" />
<glyph unicode="&#x2022;" glyph-name="bullet" horiz-adv-x="240" d="M55 274Q55 304 72 322T120 340Q149 340 167 323T185 276Q185 245 167 228T118 210Q90 210 73 227T55 274Z" />
<glyph unicode="&#x2039;" glyph-name="guilsinglleft" horiz-adv-x="210" d="M30 195L115 330H180L95 195L180 60H115L30 195Z" />
<glyph unicode="&#x203a;" glyph-name="guilsinglright" horiz-adv-x="210" d="M180 195L95 60H30L115 195L30 330H95L180 195Z" />
</font>
</defs>
</svg>
